#TITLE:Beep Beep;
#SUBTITLE:Expi3nze;
#ARTIST:Girl's Generation;
#TITLETRANSLIT:;
#SUBTITLETRANSLIT:;
#ARTISTTRANSLIT:;
#CREDIT:;
#BANNER:bn.png;
#BACKGROUND:bg.png;
#LYRICSPATH:;
#CDTITLE:cdtitle.png;
#MUSIC:Beep Beep.mp3;
#OFFSET:-0.297;
#SAMPLESTART:54.880;
#SAMPLELENGTH:26.667;
#SELECTABLE:YES;
#BPMS:0.000=144.000;
#STOPS:;
#BGCHANGES:;
// cache tags:
#FIRSTBEAT:3.000;
#LASTBEAT:357.333;
#SONGFILENAME:Songs/Super Dancer Online/Beep Beep/Beep Beep.sm;
#HASMUSIC:1;
#HASBANNER:1;
#MUSICLENGTH:150.768;
// end cache tags

//---------------dance-single - ----------------
#NOTES:
     dance-single:
     :
     Hard:
     31:
     1.000,1.000,1.000,1.000,0.179,698.000,353.000,239.000,0.000,75.000:
0000
0000
0000
0000
0000
0000
0000
0000
0000
0000
0000
0000
0000
0000
0000
0000
0000
0000
1200
0000
0000
0010
0000
0300
,
0001
0000
0000
0210
0000
0000
1000
0000
0300
0001
0000
0000
0010
0000
0000
0100
0000
0000
0012
0000
0000
0100
0000
0003
,
0010
0000
0000
1002
0000
0000
0100
0000
0003
0010
0000
0000
0100
0000
0000
1000
0000
0000
0120
0000
0000
1000
0000
0030
,
0100
0000
0000
0021
0000
0000
0100
0000
0030
1000
0000
0000
0100
0000
0000
0010
0000
0000
0001
0000
0000
0010
0000
0000
,
0100
0000
0000
0001
0000
0000
1000
0000
0000
0100
0000
0000
0010
0000
0000
0001
0000
0000
2100
0000
0000
0001
0000
3000
,
0010
0000
0000
2100
0000
0000
0001
0000
3000
0010
0000
0000
0100
0000
0000
1000
0000
0000
0012
0000
0000
1000
0000
0003
,
0100
0000
0000
0012
0000
0000
1000
0000
0003
0100
0000
0000
0010
0000
0000
0001
0000
0000
0210
0000
0000
0001
0000
0300
,
0010
0000
0000
1200
0000
0000
0001
0000
0300
0010
0000
0000
0100
0000
0000
1000
0000
0000
0010
0000
0000
0100
0000
0000
,
0001
0000
0010
0000
1000
0000
0100
0010
0001
0010
0100
0000
0011
0000
0110
0000
,
1100
0110
0011
1100
0110
0001
1100
0011
,
0110
1001
0110
0011
0110
1000
0001
0010
,
1100
0110
0011
0110
1100
0001
0110
0000
,
1001
0000
0000
0000
0000
0000
1111
0000
0000
0000
0000
0000
0200
0000
0000
0010
0000
0300
0011
0000
0000
1100
0000
0000
,
0110
1001
0110
1001
0110
0011
1100
0110
,
0011
1100
0011
0110
1100
0001
1000
0010
,
0011
0110
1001
0110
0011
0100
1001
0000
,
0110
0000
0000
0000
0000
0000
0000
0000
0000
0000
0000
0000
1111
0000
0000
0000
0000
0000
0000
0000
0000
0000
0000
0000
0001
0000
0000
0010
0000
0000
0100
0000
0000
1000
0000
0000
0012
0000
0000
0000
0000
0000
1000
0000
0000
0000
0003
0000
,
0110
0000
0000
2100
0000
0000
0001
0000
3000
0011
0000
0000
0110
0000
0000
1000
0000
0000
1200
0000
0000
0001
0000
0300
,
0011
0000
0000
0120
0000
0000
1000
0000
0030
1100
0000
0000
0011
0000
0000
0100
0000
0000
1002
0000
0000
0010
0000
0003
,
1100
0000
0000
0021
0000
0000
0100
0000
0030
1001
0000
0000
0011
0000
0000
0100
0000
0000
1010
0000
0000
0000
0000
0000
,
0101
0000
0000
0000
0000
0000
1010
0000
0000
0000
0000
0000
0101
0000
0000
0010
0000
0000
2100
0000
0000
0001
0000
3000
,
0100
0000
0000
0000
0000
0000
0021
0000
0000
0000
0000
0000
0100
0000
0000
0000
0030
0000
1000
0000
0000
0000
0000
0000
0001
0000
0000
0010
0000
0000
0100
0000
0000
0000
0000
0000
0012
0000
0000
0000
0000
0000
1000
0000
0000
0000
0003
0000
,
0010
0000
0000
0000
0000
0000
1200
0000
0000
0000
0000
0000
0010
0000
0000
0000
0300
0000
0001
0000
0000
0000
0000
0000
0010
0000
0000
0100
0000
0000
1000
0000
0000
0000
0000
0000
0021
0000
0000
0000
0000
0000
0100
0000
0000
0000
0030
0000
,
1000
0000
0000
0000
0000
0000
0102
0000
0000
0000
0000
0000
0010
0000
0000
0000
0003
0000
1000
0000
0000
0000
0000
0000
0100
0000
0000
0010
0000
0000
0001
0000
0000
0000
0000
0000
1000
0000
0000
0000
0000
0000
0100
0000
0000
0000
0000
0000
,
0011
0000
0110
0000
1100
0001
1011
0110
,
1100
1011
0110
1100
0011
0110
1011
0110
,
1100
1011
0110
1100
0011
0110
1101
0110
,
0011
1101
0110
0011
1100
0110
1101
0110
,
0011
1101
0110
0011
1100
0110
1011
0110
,
1100
1011
0110
1100
0011
0110
1011
0110
,
1100
1011
0110
1100
0011
0110
1000
0100
,
0010
0001
0010
1100
0110
0011
0110
1001
,
0110
0000
0000
0000
0000
0000
1111
0000
0000
0000
0000
0000
2002
0000
0000
0000
0000
3003
0110
0000
0000
1101
0000
0000
,
1011
1110
0110
1001
0110
1001
0222
0333
,
2220
3330
0011
1100
0011
1100
0000
1101
,
0111
1011
0000
1011
1110
1101
0112
0003
,
2110
3000
0112
0003
2110
3000
0011
1100
,
0011
1100
1001
0110
1001
0110
2222
3333
,
2222
3333
1100
0011
1100
0011
0000
1100
,
0110
0011
0000
1100
0011
0110
2002
3003
,
0220
0330
2002
3003
0220
0330
2200
3300
,
0022
0033
2200
3300
0022
0033
0202
0303
,
0202
0303
2020
3030
2020
3030
0011
0110
,
0011
0110
1000
0011
1100
0110
0011
0110
,
1100
0110
0011
0110
1100
0110
2002
3003
,
0220
0330
2002
3003
0220
0330
0202
0303
,
0202
0303
2020
3030
2020
3030
0011
0110
,
1100
0000
0110
0000
0001
0000
1100
0000
0110
0000
0011
0000
1100
0110
0011
0110
,
1100
0011
0220
0330
2002
3003
0111
1000
,
0001
0000
1110
0000
0001
0000
0100
0000
1000
0100
0010
0000
1110
0000
0001
0000
,
1000
0000
0111
0000
0010
0000
1100
0000
0001
0010
0100
0000
1011
0000
0110
0000
,
0010
0000
1101
0000
0010
0000
0100
0000
1000
0100
0010
0000
2002
0000
3003
0000
,
0220
0000
0000
0330
0000
0000
2002
0000
0000
3003
0000
0000
0200
0000
0000
0010
0000
0300
1011
0000
0000
0100
0000
0000
,
0001
0000
1011
0000
0100
0000
0001
0000
0010
0100
1000
0000
0111
0000
1000
0000
,
0011
0000
1110
0000
0001
0000
1000
0000
0100
0010
0001
0000
1101
0000
0010
0000
,
0110
0000
1011
0000
0100
0000
0001
0000
1000
0100
0010
0000
2002
0000
3003
0000
,
0220
0000
0000
0330
0000
0000
2002
0000
0000
3003
0000
0000
0020
0000
0000
0100
0000
0030
1100
0000
0000
0001
0000
0000
,
0110
0000
1000
0000
0001
0000
0100
0000
0011
0110
1100
0000
0010
0000
0001
0000
,
1100
0000
0010
0000
1000
0000
0001
0000
0011
0110
1100
0000
0010
0000
1000
0000
,
0110
0000
0001
0000
0100
0000
0010
0000
1100
0110
0011
0000
1000
0000
0100
0000
,
0012
0000
0000
0100
0000
0003
1020
0000
0000
0001
0000
0030
1200
0000
0000
0010
0000
0300
0011
0000
0000
0110
0000
0000
,
1100
0000
0110
0000
0011
0000
0110
0000
1100
0110
0011
0000
0110
0000
1001
0000
,
0110
0000
0000
0000
0000
0000
0011
0000
0000
0000
0000
0000
1100
0000
0000
0000
0000
0000
0110
0000
0000
0000
0000
0000
0011
0000
0000
0110
0000
0000
1100
0000
0000
0000
0000
0000
0012
0000
0000
0000
0000
0000
0100
0000
0000
0000
0003
0000
,
2100
0000
0000
0000
0000
0000
0010
0000
0000
0000
3000
0000
0011
0000
0000
0000
0000
0000
0110
0000
0000
0000
0000
0000
1100
0000
0000
0000
0000
0000
0001
0000
0000
0000
0000
0000
0100
0000
0000
0010
0000
0000
0001
0000
0000
0000
0000
0000
,
2100
0000
0000
0001
0000
3000
0210
0000
0000
1000
0000
0300
0021
0000
0000
0100
0000
0030
2002
0000
0000
3013
0000
0000
,
0100
2002
3013
0100
1000
0001
0220
1330
,
0001
0220
1330
0100
0001
0010
2002
3103
,
0010
2002
3103
0001
0010
0001
1100
0010
,
0001
1100
0001
0010
1000
0001
0220
1330
,
0001
0220
1330
0010
0100
0010
2002
3103
,
0010
0000
0000
0000
2002
0000
0000
0000
3103
0000
0000
0000
1000
0000
0000
0000
0010
0000
0000
0000
0001
0000
0000
0000
0220
0000
0000
0330
2002
0000
0000
3003
,
0010
0220
1330
0001
0010
2000
0100
0010
,
0001
0000
0000
0000
0000
0000
0010
0000
0000
0000
0000
0000
0100
0000
0000
0000
0000
0000
0010
0000
0000
0000
0000
0000
0001
0000
0000
0010
0000
0000
0100
0000
0000
0000
3000
0000
0022
0000
0000
0000
0000
0000
2000
0000
0000
0000
0003
0000
,
0200
0000
3000
0002
0000
0300
2000
0000
0003
0200
0000
3000
0002
0000
0300
0000
0000
0030
2000
0000
0003
0020
0000
0000
,
0200
0000
0000
0000
0000
0000
0000
0000
0030
0000
0000
0000
0002
0000
0000
0000
0000
0000
0000
0000
3300
0000
0000
0000
0020
0000
0000
0000
0000
0000
0000
0000
0003
0000
0000
0000
2000
0000
0000
0000
0000
0000
0000
0000
0030
0000
0000
0000
0200
0000
0000
0000
0000
0000
0000
0000
3000
0000
0000
0000
0002
0000
0000
0000
0000
0000
0000
0000
0000
0303
0000
0000
0010
0000
0000
0000
0000
0000
0000
0000
0000
0000
0000
0000
0011
0000
0000
0000
0000
0000
0000
0000
0000
0000
0000
0000
,
0110
0000
0000
1100
0000
0000
0010
0000
0000
1100
0000
0000
0110
0000
0000
0011
0000
0000
2002
0000
0000
0003
0000
3000
,
0202
0000
0000
0003
0000
0300
0022
0000
0000
0003
0000
0030
0202
0000
0000
0003
0000
0300
2020
0000
0000
3002
0000
0000
,
0200
0000
0000
0000
0000
0000
0000
0000
0003
0000
0000
0000
2000
0000
0000
0000
0000
0000
0000
0000
0300
0000
0000
0000
0002
0000
0000
0000
0000
0000
0000
0000
3000
0000
0000
0000
0200
0000
0000
0000
0000
0000
0000
0000
0003
0000
0000
0000
2000
0000
0000
0000
0000
0000
0000
0000
0300
0000
0000
0000
0002
0000
0000
0000
0000
0000
0000
0000
3030
0003
0000
0000
0200
0000
0000
0000
0000
0000
0000
0000
0000
0000
0000
0000
0002
0000
0000
0000
0000
0000
0000
0000
0000
0000
0000
0000
,
0020
0000
0000
0000
0000
0000
0000
0000
0003
0000
0000
0000
2000
0000
0000
0000
0000
0000
0000
0000
0300
0000
0000
0000
0002
0000
0000
0000
0000
0000
0000
0000
3030
0003
0000
0000
0200
0000
0000
0000
0000
0000
0000
0000
0000
0000
0000
0000
0320
0000
0000
0000
0000
0000
0030
0000
0000
0000
0000
0000
0200
0000
0000
0000
0000
0000
0300
0000
0000
0000
0000
0000
1000
0000
0000
0000
0000
0000
0000
0000
0000
0000
0000
0000
0011
0000
0000
0000
0000
0000
0000
0000
0000
0000
0000
0000
,
0110
0000
0000
1100
0000
0000
0001
0000
0000
1100
0000
0000
0110
0000
0000
0011
0000
0000
2002
0000
0000
3000
0000
0003
,
2020
0000
0000
0000
0000
0000
0000
0000
0000
0000
0000
0000
3000
0000
0000
0000
0000
0000
0000
0000
0030
0000
0000
0000
2200
0000
0000
0000
0000
0000
0000
0000
0000
0000
0000
0000
3000
0000
0000
0000
0000
0000
0000
0000
0300
0000
0000
0000
2020
0000
0000
0000
0000
0000
0000
0000
0000
0000
0000
0000
3000
0000
0000
0000
0000
0000
0000
0000
0030
0000
0000
0000
0202
0000
0000
0000
0000
0000
0000
0000
0000
0303
0000
0000
0020
0000
0000
0000
0000
0000
0000
0000
0000
0030
0000
0000
,
2200
0000
0000
3300
0020
0000
0000
0030
0202
0000
0000
0303
0020
0000
0000
0030
2200
0000
0000
3300
0020
0000
0000
0030
2002
0000
0000
3003
0200
0000
0000
0300
,
0022
0000
0000
0033
0200
0000
0000
0300
2002
0000
0000
3003
0200
0000
0000
0300
0022
0000
0000
0033
0200
0000
0000
0300
0010
0000
0001
0000
0010
0000
0100
0000
,
1000
0100
0010
0001
0010
0100
1000
0100
0010
0100
0010
0001
0010
0100
0010
0100
,
1000
0000
0100
0000
0010
0000
0100
0000
0010
0000
0001
0000
0010
0000
0100
0000
0010
0000
0100
0000
1000
0000
0100
0000
0022
0000
0000
0033
2000
0000
0000
3000
,
0202
0000
0000
0303
2000
0000
0000
3000
0022
0000
0000
0033
2000
0000
0000
3000
0202
0000
0000
0303
0020
0000
0000
0030
2200
0000
0000
3300
0002
0000
0000
0003
,
2020
0000
0000
3030
0002
0000
0000
0003
2200
0000
0000
3300
0002
0000
0000
0003
2020
0000
0000
3030
0002
0000
0000
0003
1000
0000
0100
0000
0010
0000
0100
0000
,
0010
0001
0010
0100
0010
0100
1000
0100
0010
0100
0010
0001
0010
0100
0010
0100
,
1000
0000
0000
0100
0000
0000
0010
0000
0000
0100
0000
0000
0010
0000
0000
0001
0000
0000
0010
0000
0000
0100
0000
0000
1000
0000
0000
0100
0000
0000
0010
0000
0000
0100
0000
0000
2002
0000
0000
0000
0000
0000
0020
0000
0000
0000
0003
0000
,
0200
0030
0000
0000
3300
0000
0000
0000
0000
0000
0000
0000
,
0000
0000
0000
0000
;
